Cue File Generator.
But my own FLAC files work fine at any bit depth or sample rate. The program now "remembers" the folder you chose. For example, NFS file systems could be mounted through the portmapper despite export restrictions. Generate a great number of leads and increase your sales. Sometimes you can find a big compressed music file (for example MP3, APE, FLAC, OGG. Create a CUE file (if you don't have one). you lost a cue-sheet file and generate! Cue maker i that creates cue-sheet files Cue Sheet PDF. The way to generate an e-signature for a PDF file on Android Get more for Lighting Cue Sheet Pdf Small claims court notice of attachment employer notice of attachment employer guamselfhelp form. I want to use foobar2000 to export each separate album as a single file + CUE sheet, and then be able to encode the output file (WAV) to AAC with iTunes (this is the easy part) and then convert the CUE sheet to a Chapter Tool-compatible XML file so I can efficiently use Chapter Tool on one of the Macs to add iPod-friendly chapters to my album. Read about the revisions here. Cue Sheet Generator creates both the Cue file and the associated WAV files automatically based upon your layout. wav files, and it generate INDEX values that were not recognised by Cuetools - the values were not 00:00:00, but rather the cumulative length of the tracks to that point. Unreal Engine 4 (UE4) supports importing 16-bit and 24-bit, PCM-formatted. Finally received my full copy of Numark Cue in the mail today. Then would be able to play those title images using generated cue files. Open the cue file with a text editor and fix the name of the bin file, respect the low case and upper case, the cue file point to the bin file and the name of bin file must be extactly the same. Automatic character set detection for CUE files. flac > joined. Generated file tags are automatically filled with informations extracted from "CUE" files (informations can be modified on-the-fly). Download the program (Lior's Cue Maker) by clicking here. Just to clear up some confusion, Redump. Ships from and sold by Home Improvement Co. DTM Flat File Generator. Code: Select all 2. bin" BINARY TRACK 1 MODE2/2352 INDEX 1 00:00:00It's is actually called a cue sheet. ‪Medieval Software‬. Audio Cues is designed for live performance. It's good if you lost a cue-sheet file or if you have a corrupt one. Cue generator is a online tool to create cue files from PSX bins or ISOs. Timestamped Tracklist: Copy 0 Chars to Clipboard. shntool cue *. If you added a media cue directly to a Library Playlist, click on the blue info button above the cue when it is selected. Skip to content. Native Instruments is a leading manufacturer of software and hardware for computer-based audio production and DJing. CUE file contains tracks information, while the corresponding BIN file contains real track data. cue, a simple text file listing tracks and timings. bin" BINARY TRACK 01 MODE1/2352 INDEX 01 00:00:00 FILE "Generator Vol. If you choose to cancel your subscription, you cannot use our offerings in new projects. flac" WAVE TRACK 01 AUDIO TITLE "When She Comes" PERFORMER "Van Der Graaf Generator" INDEX 01 00:00:00 TRACK 02 AUDIO TITLE "A Place To Survive" PERFORMER "Van Der Graaf Generator" INDEX 00 07:58:33 INDEX 01 08:02:33 TRACK 03. Theoretically this should work, but anyway, with a mounted image on a virtual drive, use another image creator to make the bin/cue/whatever else off that virtual drive. CUE Sheet Software Informer. It may contain the song name, performer, and length of each track on the disc. It’s only important that in the. cue thingy in with them. Currently M3U, M3U8 (UTF-8 encoded M3U files) and WPL (Windows Media Player) playlists are supported. An OrderedMap is a set of key-value pairs that preserves the order in which items were added. Make sure the RAW option is checked, then click START. Replace the. ::cue { color: yellow; font-weight: bold; } Copy to Clipboard. NRG), or CloneCD (. This can be used to style captions and other cues in media with VTT tracks. A video display system for an automatic cue generator / programmers can use ELF to control the flow of execution at run time. To avoid confusion, it is possible to exclude characters from the code generation that look-a-like on a screen (I, l, 1, |, O, 0). TRACK 01 MODE1/2352. Need some help with a use-case scenario: A cue sheet with 41 tracks - referencing a 122 min file - needs to be edited to remove the first track. iso" BINARY TRACK 01 AUDIO INDEX 01 00:00:00 TRACK 02 MODE1/2352 PREGAP 00:03:00. The easiest way to see the CUE sheet format this tool knows how to parse, is to convert some labels first and look at the resulting CUE sheet output. A video display system for an automatic cue generator / programmers can use ELF to control the flow of execution at run time. This will generate a Spec pass. Create Cue Notes. The big problem as Detlev already said is adding the track lengths. The C4 does a fine job of playing music but everything else about it is a little basic - it's a bit like an early CD player in that respect. A cue sheet, or cue file, is a metadata file which describes how the tracks of a CD or DVD are laid out. CDBurnerXP will automatically split audio files according to the information in the CUE file and add them to the compilation. For each use of an offering in a project, please generate a usage record. 1 pc KAMUI Snooker Black Laminated Billiard CUE TIP,CUE TIP 1 pc KAMUI Snooker Black Laminated Billiard, 11 mm) : Sports & Outdoors,: KAMUI Snooker Black Laminated Billiard CUE TIP - 1 pc (Medium,Warranty and FREE shipping,Enjoy 365 Day Returns,Save even more with Free Pickup + Discount. Cue generator is a online tool to create cue files from PSX bins or ISOs. CUE Splitter. cue files are just text files that contain: FILE "Name of bin file" BINARY TRACK 01 MODE2/2352 INDEX 01 00:00:00 You could try just making one and putting it in the same folder as your. December 24, 2017 Version 1. FILE - A path to a file containing audio data, and to which subsequent commands apply. If you added a media cue directly to a Library Playlist, click on the blue info button above the cue when it is selected. Version Pro Evolution Soccer 2017. +) Norwegian language supported. Make sure that you are in splitter mode and click "Add file" button. 99 Only 20 left in stock - order soon. The cue point generator tries it best to analyze any music file, but because there are so many different styles of music, things sometimes go wrong. GoldWave's convenient, all-in-one design even. log file should have the same name as the. Double-click on the CUE file and choose to open it in Notepad. Tracks are not separated, which makes searching for particular songs quite difficult. Just repl. The average pool cue should weigh between 16 and 21 ounces. Download Cue Sheet Generator for free. Motivation • Cyclists create GPS track files on rides • Track files are sets of lat/long points • Would be useful to create turn-by-turn directions from these lat/long points, with street names, distances between turns, direction to turn, and points of interest along route, as well as a map of the route. I will generate some more (44. Make Palm Cards Now!. org; Over 1. This is the Windows app named Cue Sheet Generator to run in Windows online over Linux online whose latest release can be downloaded as cuegen_win32. More icons from interface category. 1622010926504. ChiefReginod GBAtemp Regular. Last active Sep 3, 2016. Marshal generates JSON from within CUE. ¾ôíì ç à æ ê@”@™@œ@ Ì ÉÍ Î 1028-0897292Ï # InMemory} É Ë Ê y ; 2400x3840:0-5|Index of the Project Gutenberg Works of Gilbert K. We now have many different file extensions, including ISO, BIN, IMG, CIF, FCD, NRG, GCD, PO1, C2D, CUE, CIF, CD, and MagicISO can open and manipulate just about any disc image format. FILE "07 - Brought to Book. DCue is available for both Windows and Linux and is written in C++ with no external library dependencies. edu [email protected] Although you can export. 2,184 likes · 11 talking about this. Executes the add and generate phases for a named configuration set. Native Instruments is a leading manufacturer of software and hardware for computer-based audio production and DJing. BIN" BINARY. You don’t even need to do anything. mobi domain during the extended trademark sunrise period through September 22nd and receive a free Web site builder Hostway Corporation, the leading global provider of Web hosting and online services, announced the extension of the Trademark Sunrise period until September 22nd for the. Image Credit: Image courtesy of Apple. Light and Dark themes. CUE Sheet Library v. Exporting Tags without Cue Points. Re: looking for a free cue sheet editor. Hi, I'm hoping someone can help me find a. cue filename extension. wav" WAVE, delete the folder info so it's like FILE "MyFlacFile. Also, the generated CUE file should contain "DCue v1. You can also right click on the route line where you want to add a cue. cue file should be in the kB for file size, the. It features type checking, validation, and an excellent set of tooling. LD2K Classic Abstract Generator. 2 MB License: Shareware Price: $29. Director, Regulatory and Clinical Affairs. 0 license found in the LICENSE file. Toast will create both for you automatically. For a specified folder including all sub-folders, it creates a cue sheet for each wav or flac file found. cue file for your ISO. The Recursive Cue Creator is a Java application that I wrote to generate cue sheets for use with the Cics Play memory player software (or any other music player that supports cue sheets). m3u” file exported from iTunes, making all those changes to the file and even using a Hex editor to delete those three characters is a rather time-consuming and difficult way to do it. This utility will enable you to generate CUE sheets for Sega CD, Sega Saturn, and Neo-Geo CD games. sre ! [OK - 38933/4096 bytes] Following languages are av. cue file which means some information such INDEX and ISRC is lost I tried it on a folder of individual. The "Sound Processing" window will load your WAV file and you will see a timeline. Timestamps uses sophisticated data extraction technology to auto-generate a timestamped tracklist. 44100hz, 16bit, stereo) Use notepad to edit cue file to rename all wav files to new ogg format. The result set can be sorted alphabetically / numerically. Skip to content. wav files at any sample rate for up to 8 channels. A cue sheet is generally used in conjunction with either extracting from or burning to CD. And while this is going to be Cue's primary use case for most people, you can actually generate pretty much anything. Current version: v1. Optionally, you can also have ImgBurn compare it against a given image file to ensure the actual data is correct. Materials can be saved in ZBrush at [Material:Save] SSS. Cue sheets are used to provide index information for a large audio file. It is a cookbook of sorts. Automatic character set detection for CUE files. HTML Compression: Compress HTML contents into a smaller. Cue generator is a online tool to create cue files from PSX bins or ISOs. Copy link to clipboard. Media Cue Inspector. Then would be able to play those title images using generated cue files. Parametric Images. 送料無料 北欧 デザイン チェア おしゃれ モダン 。MENU Flip Around スツール. Jan 17, 2014 · Cue sheet creator, a few requirements of this codec: Only works when ripping audio CDs, All tracks of the CD have to be ripped at the same time. Built-in Logger. This utility will enable you to generate CUE sheets for Sega CD, Sega Saturn, and Neo-Geo CD games. bin to the name of the BIN file you are trying to burn. Older versions can be found on GitHub. Displaying a GlobalSign’s SSL Secure Site Seal is a great way to boost your website’s legitimacy, and is the best visual indicator to assure your website visitors that every piece of information or transaction is shared within a secure environment that is authenticated by one of the internet’s original and most trusted Certificate. ChurchBells Church Bell Tower carillon software chimes time, Hymns Carols Harmonious Bells; MultiTone Generator A multi oscillator. Mixing manually created with generated files The files that the cue tool generates all end with _go_gen. Arcade games. DCue is an open source command line tool for creating audio cue sheet files using the massive release database at Discogs. The emulator mednafen works fine with a cue sheet and an iso. Available in both Hebrew and English, its simple interface allows you to open any BIN file and generate its corresponding CUE file in one single step. cue file or a. Rekordcloud will find duplicate, unused or broken files in your library in no-time. Step 2: Use silence detection to generate tracks. Cue sheets are stored as plain text files and commonly have a. With AudioCuesheetEditor you can import textfiles, edit the imported data and afterwards export to a working audio cuesheet. Automatically or manually generate a cue-File for every PS1 Game-Image. It has a very simple command line syntax and creates human-readable and universally compatible cue sheets (. If the game plays additional music tracks from the cd , you can still mount it as an image file. The region -20 R(E) less than x less than -14 R(E) in geocentric solar magnetospheric coordinates was studied. FLAC files with CUE? Plex Media Server Desktops & Laptops. Marker & Cue. 21 ID:QA3GeFeq 海外サイトやエロサイトは経験値がものを言うからねぇ そのうち画面構成やURLの時点で怪しいと判断つくようになるし頑張れ. The same caution about specifying names of the FLAC files applies. Use encoder to convert WAV to OGG (Copy same specifications. What you do is to open EAC and go to Tools - Process WAV - select your wave file. There are several ways to get the same result, it’s up to you to decide what you find to be the easiest way: Use a WAV editor (I’m pretty sure CoolEdit handles WAV files) and cut up the WAV file, open Nero and select the files you want to burn, in the left window of Nero select all the tracks except the first track, right click --> properties and set pause to 0 (default is 2). xml says: [quote] Creating a new file release First edit the file VERSION, and make it say what you are about to release. To use it you only need to open the *. External CUE sheets can also be viewed and edited with this tool, and used to burn. Also of note, Nero 6 now accepts a '. STEP 2: Copy the file over to your iDevice using any of the file managers mentioned above or skip this step if you're downloading from your iDevice. 1 - fixed bug where bin files aren't copied to the working directory when a cue file is selected. The script can handle audio CUE files only. I was thinking about that, but the game was running with other emulator, so I feared to broke something. It can also apply various effects to these sound files, and, as an added bonus, SoX can play and record audio files on most platforms. Read - Read a disc to an image file; Build - Create an image file from files on your computer or network - or you can write the files directly to a disc; Write - Write an image file to a disc; Verify - Check a disc is 100% readable. Check out our updated Alexa skill! “Alexa, ask sad trombone to play viking horn. Easy Cue is a powerful application designed to enable you to create and edit cue files. rar:2021/06/10(木) 16:54:53. The tool has 25 built-in data generators and value library. This will now create the bin/cue files for use with "Emulator". Finally start Nero and choose the Burn Image option. As an alternative, many technical users use Robocopy (Robust File Copy), a command-line tool built into Windows 10 that provides more features to move data to a different location more quickly. It creates a file of jumbled words taken at random from lists of more than 85,000. Creating a cue sheet for a CD has never been so easy. This utility will enable you to generate CUE sheets for Sega CD, Sega Saturn, and Neo-Geo CD games. CueMaster v. Afterwards click 'OK' button. Creare un file cue con Audacity e Label2Cue. [email protected]> Subject: Exported From Confluence MIME-Version: 1. This was definitely helpful and saved a lot of time. CUE Splitter works with the following formats: MP3, FLAC, WAV, WMA, OGG, APE. Backup your current cue-Files. m3u” file exported from iTunes, making all those changes to the file and even using a Hex editor to delete those three characters is a rather time-consuming and difficult way to do it. Upload new audio files, reuse existing files in your media library, or even link to remote sources. Pregenerated Files. QR-Code-Generator. It also supports multi-disc PBPs. 52_1_Std12_GujMed_ComputerStudies_Opt. It is a cookbook of sorts. The text (cue) file should be like this: TRACK 01 AUDIO TITLE "Whatever you call the first track" PERFORMER "I don't think you have to include this" INDEX 01 00:00:00 TRACK 02 AUDIO TITLE "Second Track PT 1" PERFORMER "Whoever" INDEX 00 02:47:74 INDEX 01 02:48:27. bin file should be the larger size. Would be nice, when extracting cd as a whole image, if the regions and tracks could be named after the actual tracks on the cd and/or a separate file (like a cue file) created. ::cue { color: yellow; font-weight: bold; } Copy to Clipboard. This is my Official page I'm a young DJ from Zoar Remember To Share My Page With Your Friends & Family #CueBeats For Bookings WhatsApp : 062 455 9253. If you would like to use a different material for the Spec pass simply overwrite this file with another Material. Sometimes a random word just isn't enough, and that is where the random sentence generator comes into play. Open navigation menu. How to access rekordbox. Manually write a cue file of tracks. bin opens up and reads all the correct information in any disc image application, such as poweriso, imgburn, etc w/o having a. Author: SoftDemon. This tool has some cool features like - Generate random number, number animation, number lingo, called CUE counter, shuffle numbers, hide extra stuff to view minimum required things, hide buttons, show CUE called Sequence, highlight last 5 calles CUEs, accidentaly closing the window/refreshing the window protection for called CUEs, Custom CUEs. Complete a security verification below to download your file: と出て落とせないんだけどどうすれば落とせるのでありますか? 580 : [名無し]さん(bin+cue). Create Cue Sheet From Single FLAC File on WindowsApps: Audacity, Mp3tag, foobar2000. cue extension you can find the corresponding cue file, just. CUE Splitter. The resulting individual WAV tracks can then be burned onto a CD easily or listened separately using your favorite audio player. All WebVTT files start with the line “WebVTT,” while SRT files don’t use an SRT distinction and instead begin with a “1” for the first caption sequence. • UL/cUL705 Listed Power Ventilators File E40001 (CUE and CUBE). Timeline Hotkeys. Jan 05, 2017 Virtual DJ 8 Pro Crack Full Version For Windows & Mac: Virtual DJ 8 Pro Crack Full Version is an amazing music software. LD2K Classic Abstract Generator. How? By using text/templates to render any file we wish. 1 (Japan) (Track 1). Use encoder to convert WAV to OGG (Copy same specifications. Position and Rotation controls. Version Pro Evolution Soccer 2017. [email protected] Cue2Toc is a perl script that will convert CUE file into a cdrdao TOC file. It features quickly list one or all cue files in directory, check cue locate media file very quickly, edit ISRC, catalog, title, performer, and writer for CD and tracks, batch modify tracks information, cue file content syntax highlighting, associate easy cue editor to. Latest updates on everything CUE Sheet Software related. Top free cue club serial key downloads. Backup your current cue-Files. flac > joined. VIEW SLIDESHOW : 1. In order to generate Go code, the Go package's import path must be provided for every. Just bought Plex, lifetime pass, and I love how it organizes my movie collection. With a tracklist a cue sheet can be created that will allow you to access the tracks very easily. The charts below show local government expenditure in 2010 and 2015. Executing. The screen-shot to the right shows an example of SoX. It examines only three field (record) types: FILE, TITLE and INDEX. This page is used to inform website visitors regarding our policies with the collection, use, and disclosure of Personal Information if anyone decided to use our Service. Download ConvertIcon Desktop - Generate ICO files from PNG, GIF, JPEG or CUR format and pick the icon size, change the size of existing ICOs, or convert images to PNG format. The data file is only accessed by your own computer. I've returned and I'm aware of the problem. In addition, for each use of the offering that is broadcast on network/cable television, a cue sheet is required. Creating the CUE sheet is one of the least complicated things that AutoFLAC does. 55 Read & write CUE sheet files. rar :2021/05/31(月) 19:29:10. zmt’ located in \ZBrushToPhotoshop_4R8\. If you already have Go installed, the short. Jun 27, 2017. Top free cue club serial key downloads. ‪Medieval Software‬. ¾ôíì ç à æ ê@”@™@œ@ Ì ÉÍ Î 1028-0897292Ï # InMemory} É Ë Ê y ; 2400x3840:0-5|Index of the Project Gutenberg Works of Gilbert K. CUE file, if the ISO and CUE files have identical names and it successfully mounts (the tiniest problem. I will generate some more (44. cue file which means some information such INDEX and ISRC is lost I tried it on a folder of individual. 2020 Comments on Cue file generator GitHub is home to over 40 million developers working together to host and review code, manage projects, and build software together. Explore the different types here. Last Edit : 2011-04-10 16:23:28 by Reng. Does anyone have any experience of using it? it overwrites the existing. The resulting individual WAV tracks can then be burned onto a CD easily or listened separately using your favorite audio player. Cue Sheet Generator creates both the Cue file and the associated WAV files automatically based upon your layout. EdiCue can generate an ADR summary in the form of a PDF, Text or Excel file. QeD The Ultimate Liveset Cuesheet Editor. Cornell uses about 18% for its summary area. Cue Flac free download - 4Musics FLAC to MP3 Converter, Medieval CUE Splitter, Bigasoft FLAC Converter, and many more programs. With the same name, but with the. Then I have a new cue with the raw file as track 1 and the wav files as the audio tracks. Whether I am turning a square round, taking a final pass on a fully assembled cue, or just taking a clean up cut on a newly installed joint collar, I use CueCut to generate the GCode file for it. Cue creator ps1. Use Sega Cue maker to generate CUE file (Results in ISO/WAV cue) >> If ISO/WAVE came with cue, use it instead. The charts below show local government expenditure in 2010 and 2015. The CUE file is the index file associated with FLAC file, if there is no CUE file, it can't select the song when playing FLAC file. edu [email protected] (And if you haven't made an outline yet download. It can be used in any number of maps, requires only a single entity to implement, and does not generate any network traffic. New tool – DAT to HyperList Creator. fi) to do. FLAC files with CUE? Plex Media Server Desktops & Laptops. The names of the. Replace the. Generate the MD5 and SHA1 checksum for any file or string in your browser without uploading it, quickly and efficiently, no software installation required. Removing this track should reset all subsequent tracks (track number and Index times) based on the second track Index time. Cue sheet file entries will contain the full path. Where you can use spaces you can also use tabs. Configure PDF (or keep default settings) Click "Generate PDF" at bottom of page; Check your email and print PDF file. CUE files are not actually music files themselves but describe the music stored in other files. Leave your feedback on GitHub. Drop/breakdown is offset by exactly 1 or 2 bars. Snooker Cue Tip Clamp Standard Wooden Cue Tip Clamp Repair Tool with Coil File for Snooker Cues 10MM & 11MM, we would be happy to set up a custom listing for you. Click SIGN IN AS CLUB. Description CUE Splitter is a freeware tool that splits a single big audio file, mostly an album or a compilation, into the relative individual tracks, using the informations contained in the associated "CUE Sheet" file. ccd images ( CloneCD) to other disk image formats, a. It features type checking, validation, and an excellent set of tooling. zmt’ located in \ZBrushToPhotoshop_4R8\. This bypasses needing to first click Custom. (not sure if this is necessary, but sega cuemaker would not make a cue until I did this. DCue is an open source command line tool for creating audio cue sheet files using the massive release database at Discogs. cue present. When you are finished using the flash cards, simply delete the file. Click SIGN IN AS CLUB. CUE Splitter è rilasciato sotto i termini della licenza General Public License. If you choose to cancel your subscription, you cannot use our offerings in new projects. I've been attempting to play a. Upload multiple files with the file dialog or by dragging and dropping files here. It has an option to store tracks in the original album folder, or to create a new folder. CUE files are often attached to the Audio CD images created by programs like EAC (Exact Audio Copy), CDRWin, CUERipper. Open the src > plugin. You'll see the text that's shown in my picture. If you have knowledge to share, want to establish yourself as an expert, or make connections, please jump in and answer questions. cue file to the name in the database and you’re good to go and saved yourself a lot of work. With UE4, you can also build composite sounds in the form of Sound Cues. Now that you have the Custom Cue tool selected, click on the route where you want the Cue. Just repl. Runs on: Win95, Win98, WinME, WinXP, WinNT 4. CueMaster can retrieve CD track info from the free online album database FreeDB, or recover cuepoints from the MP3 file itself. Change text color to black where visibility was masked when the background was removed. server-mac. Reverse route. If all you have is bins, you can go to redump. An ISO file can only contain one data track, however bin / cue file can contain multiple tracks, and can contain data, audio, or video tracks. What this means to the CSG use is that CSG can be set to automatically open Nero's burn window with your new. MD5 & SHA1 Hash Generator For File Generate and verify the MD5/SHA1 checksum of a file without uploading it. Zahlensystem Konverter. cue for example, note the data file is iso. I initially selected the setting to convert 2 files at the same time, but found that with very large 24bit albums, JRiver would not convert every file. Extracting a CHD to a more accessible format, like IMG for hard disk drive backups or a BIN & CUE combination for CD backups, has a point only if you’re going to use those files in a different emulator that doesn’t support the CHD format. (And if you haven't made an outline yet download. For instance, a Kubernetes ConfigMap may specify an embedded JSON file. Then enter the desired filename. Even if duplicate tracks have different titles, Rekordcloud will have no trouble recognizing them. You'll see the text that's shown in my picture. The ::cue CSS pseudo-element matches WebVTT cues within a selected element. Download the latest release from GitHub. css file, if you selected Yes to the CSS tooling option. bin+cue to. Any vet rep or VSO who can read, would be able to understand what a valid CUE is by reading this case, and be able to determine if you should file or re open in that regard. The program comprises the most general direct, multi drive and variable precision algorithms. The same caution about specifying names of the FLAC files applies. Open the CUE file in Notepad to rename the ISO as well. Parametric Images. FILE "Dungeon Master - Theron's Quest (USA). So I have two windows open: The File conversion one with the. 1 (Japan) (Track 4). cue file in the same location. Example sentences: “Hand me the cue. Forwarded from We The Media. cue (CUE) files Frescobaldi. " I can easily find the. J ust make sure after you select the next button that your window looks like the window shown below :. 1 pc KAMUI Snooker Black Laminated Billiard CUE TIP,CUE TIP 1 pc KAMUI Snooker Black Laminated Billiard, 11 mm) : Sports & Outdoors,: KAMUI Snooker Black Laminated Billiard CUE TIP - 1 pc (Medium,Warranty and FREE shipping,Enjoy 365 Day Returns,Save even more with Free Pickup + Discount. Click SAVE to add this cue to the cuesheet. Create Cue Notes. deb file and tap on it. net ウィルス(に感染するための. Cue generator is a online tool to create cue files from PSX bins or ISOs. Make sure that you are in splitter mode and click "Add file" button. Snooker Cue Tip Clamp Standard Wooden Cue Tip Clamp Repair Tool with Coil File for Snooker Cues 10MM & 11MM, we would be happy to set up a custom listing for you. xml file (no need to manually generate this anymore)! Adding in columns for artwork1-4, save state support, pixel width, height, palette size, and display type. Most of the audio is one file per disc with a. CDBurnerXP will automatically split audio files according to the information in the CUE file and add them to the compilation. When you name your. Generate and manage PAK-based and other device licenses, including demo licenses. My Scripts: AutoIt Package Manager, AutoItObject Pure AutoIt, libvlc, Asprise OCR, Corsair CUE SDK. There are several output modes:. claudio_roma May 4, 2015, 12:35pm #21. Then would be able to play those title images using generated cue files. Re: looking for a free cue sheet editor. What you do is to open EAC and go to Tools - Process WAV - select your wave file. Generated file tags are automatically filled with informations extracted from "CUE" files (informations can be modified on-the-fly). Frame editor New. Depending on your purpose, you can use our generator to create QR Codes to open a website, view a PDF file, listen to music, watch Youtube videos, store image files, connect to a WiFi network, and much more. In WebVTT, cue identifiers are optional. cue file is for a Playstation game, Final Fantasy IX. A cue sheet (or CUE file,. CATALOG - A 13-digit UPC/EAN code. Cue sheets are hard to find these days. Since ISO can only contain pure data, the image has to be in the CUE/BIN format. This bypasses needing to first click Custom. cue file which means some information such INDEX and ISRC is lost I tried it on a folder of individual. cue ( plural cues ) ( sports, billiards, snooker, pool) A straight tapering stick used to hit the balls in various games. CueMaster can retrieve CD track info from the free online album database FreeDB, or recover cuepoints from the MP3 file itself. New tool – DAT to HyperList Creator. PPF originally stood for PlayStation Patch Format. (If you are trying these commands in order, joined. Note this will only work on Windows and may need some. CueMaster can retrieve CD track info from the free online album database FreeDB, or recover cuepoints from the MP3 file itself. Medieval Software built the CUE Splitter app as a Free app. Just repl. This waveform is computed and displayed in the background, to never generate waiting cycle. Here is what you need to do: 1) Download vcdtoolsX and unpack the. There are 1000s of ways to make money in the markets, so when it comes to trading, Forever In Profit gives you. Any format of message like images(jpg, png, gif), video files, audio files, links of website or online shop can be shared. STEP 1: Download the. 1, 2020 Title 14 Aeronautics and Space Parts 60 to 109 Revised as of January 1, 2020 Containing a codification of documents of general applicability and future effect As of January 1, 2020. cue is a simple text file. The CUE sheet is this file. Snooker Cue Tip Clamp Standard Wooden Cue Tip Clamp Repair Tool with Coil File for Snooker Cues 10MM & 11MM, we would be happy to set up a custom listing for you. Exporting Tags without Cue Points. Added: Option to preserve HTOA when outputting gaps appended CUE sheets. ‪Medieval Software‬. Konverter 4. New tool – DAT to HyperList Creator. CD2 , etc so that EmulationStation will list only the. IP-Adresse ermitteln. You can use CUE to gradually introduce policies into your configuration. Spider Pool Cue. If the process fails for any reason the uploaded file remains in /wp-content/uploads/ and/or /wp-content/upgrade/ It would be best if the plugin and theme upload functionalities properly clean up the uploaded files if a plugin or theme fail to properly get extracted and/or installed. Following Unfollow. Also, CUE data could become your single source of truth, and you could simply generate all your configuration from it in whatever format is required. Deprecated: the API now returns an ast. Description: ISO-Generator. LEARN MORE. Simple tags browser with the ability to save informations. com API Label2Cue Convertor. So Max needs to improve the parsing of. CUE sheet is a special file that contains information about tracks in a continuous audio file. Available in both Hebrew and English, its simple interface allows you to open any BIN file and generate its corresponding CUE file in one single step. Steam Community: Steam Artwork. 36 ID:86+iqAu2. Player is also Cue Files Editor. Director, Regulatory and Clinical Affairs. You can open up the cue file in notepad and have a look. Note that if the ripped PS1 game is divided into different audio tracks, you should. I don't see anything relevant in the. Pass in a DAT file and it will spit out a XML file. You'll see the text that's shown in my picture. DCue is available for both Windows and Linux and is written in C++ with no external library dependencies. This can be used to style captions and other cues in media with VTT tracks. Convertio - Easy tool to convert files online. CueMaker scans directories and creates. (If you are trying these commands in order, joined. Automatically generates an M3U and M3U8 playlist file ready for Winamp (and others). If you've ever built a website with a static site generator like Hugo, this will be familiar. Medieval Software built the CUE Splitter app as a Free app. The destination of the ISO image which is going to create is also auto generated by the System within the same folder. proto files being generated). Generate cues files from multiple bins and download straight to your computer How to Create Cue file For PlayStation 1 Game FILE xxxxxxxxx. Drag your bin files onto the dropzone below and have the cue sheet generated automatically. BIN" BINARY. You have the option to make bootable CDs. Many downloads like Numark Cue V4. For multi-disc games on. bin file with missing. General features of this free playlist generator: It comes with a quick search feature. cue file in the same location. CUE Splitter is a freeware tool that splits a single big audio file, mostly an album or a compilation, into the relative individual tracks, using the informations contained in the associated "CUE Sheet" file. Upload multiple files with the file dialog or by dragging and dropping files here. 99 Only 20 left in stock - order soon. I've been playing around (again) with PlayStation emulation in the past few days and one thing that bugged me was that some of my game rips didn't have proper cue files. Common E-LT tasks such as, connecting to ODI Studio with VNC server, and creating repositories, data models, datastores, and mappings are discussed. CD_DA TRACK AUDIO FILE track01. Usual "Open" dialog appears. m3u” file exported from iTunes, making all those changes to the file and even using a Hex editor to delete those three characters is a rather time-consuming and difficult way to do it. Load using genesis plus gx. CueMaker scans directories and creates. Explore the different types here. Summarise the information by selecting and reporting the main features and make comparisons where relevant. CueMaster can retrieve CD track info from the free online album database FreeDB, or recover cuepoints from the MP3 file itself. Change your. CUE Sheet Software Informer. We now have many different file extensions, including ISO, BIN, IMG, CIF, FCD, NRG, GCD, PO1, C2D, CUE, CIF, CD, and MagicISO can open and manipulate just about any disc image format. New tool – DAT to HyperList Creator. cue file (cue-sheet) contains the track layout information and the. As we’ve seen, sometimes a cue isn’t good because it doesn’t offer enough detail or the right detail. CUE sheets can be used with ISO images. Route Simplification. Add expiremental support for games with multiple audio tracks. It features type checking, validation, and an excellent set of tooling. Category Sport. you lost a cue-sheet file and generate! Cue maker i that creates cue-sheet files Cue Sheet PDF. In addition to split FLAC files, Bigasoft FLAC Converter can also convert the FLAC files to popular audio formats like M4A, WAV, 24 bit WAV, MP3 up. The tool chooses nouns, verbs and adjectives from a hand-picked list of thousands of the most evocative words and generates a random sentence to help inspire you. ( Do Not select "Print to File" option. The C4 does a fine job of playing music but everything else about it is a little basic - it's a bit like an early CD player in that respect. Frame editor. Now setup some cue list details, such as a name for the cue list, it's number in the sequence pool, the page and executor number the cue list should assigned to and finally a timecode pool number and the project frame rate. Because of this, you should be able to open the file via the cue file. Its simple interface allows you to open any BIN file and generate its corresponding CUE file in one single step. First, if your audio file name in the cue file has strange characters (e. If you only have a. In the right side panel, click PRINT PDF MAP & CUE SHEET. chdman createcd -i las. Make sure that you are in splitter mode and click "Add file" button. I am intending to use the program to extract tracks from mix cd's that doesn't start and stop exactly at the track index points (i. Click "OK" to start copying disc to the BIN file. This is in contrast to the previous two. This is a collection of cue and sbi files found around the web for Playstation One (PSX) roms. Edit the CUE sheet. bin to the name of the BIN file you are trying to burn. The cue point generator tries it best to analyze any music file, but because there are so many different styles of music, things sometimes go wrong. Cue really shines with configuration management and solves a lot of fundamental problems we have with current options. mp4 -acodec copy -vcodec copy -f mov output_file. wav" WAVE INDEX 01 00:00:00 TRACK 09 AUDIO TITLE "Go" PERFORMER "Van der Graaf Generator" ISRC GBBLY1602009 FLAGS DCP INDEX 00 07:53:48 FILE. ) Open the src > plugin. It marshals to JSON as an object. Dependency lines: cue2toc>0:audio/cue2toc. For rekordbox , tracklist generation happens automatically for. Point to the. I’m ready to break. A program to easily generate cue sheets for CD images with compressed or raw (wav) audio tracks, usable, for example, in DosBox A cue sheet, or cue file, is an ASCII (plain text) file that specifies how the tracks of a compact disc. One of them is a “. cue file is just useless metadata as far as emulation is concerned. Backing tracks for musicians, sound effects for magicians, playlists for yoga teachers: all are possible with this simple app. CVE-66584. A few other great programs that I use and highly recommend to convert files to bin/cue to and from other formats are UltraISO and ImgBurn. bin file the (data and/or audio) track(s) are. WAAS instead of CUE. Cue sheets You can add Cue sheets to audio discs, just as you can add playlists (see above). General features of this free playlist generator: It comes with a quick search feature. A soundscape is a type of audio script used to add ambience to maps. CueMaster can retrieve CD track info from the free online album database FreeDB, or recover cuepoints from the MP3 file itself. Currently M3U, M3U8 (UTF-8 encoded M3U files) and WPL (Windows Media Player) playlists are supported. This tool has some cool features like - Generate random number, number animation, number lingo, called CUE counter, shuffle numbers, hide extra stuff to view minimum required things, hide buttons, show CUE called Sequence, highlight last 5 calles CUEs, accidentaly closing the window/refreshing the window protection for called CUEs, Custom CUEs. 21 ID:QA3GeFeq 海外サイトやエロサイトは経験値がものを言うからねぇ そのうち画面構成やURLの時点で怪しいと判断つくようになるし頑張れ. Cue generator is a online tool to create cue files from PSX bins or ISOs. cue file will always be generated together with a. If the game plays additional music tracks from the cd , you can still mount it as an image file. cue file for recordings: When a recording is done with rekordbox, it generates a. 2 MB License: Shareware Price: $29. 0 license found in the LICENSE file. AnyToISO is able to create BIN/CUE image from CD, Audio CD or DVD. bin files that are missing them. Thank you!. Ocean tides from Seasat-A. Make Palm Cards Now!. Load a track into the Traktor deck, and you’ll see the 8 cue points light up. Open the CUE file in Notepad to rename the ISO as well. All gists Back to GitHub Sign in Sign up Sign in Sign up {{ message }} Instantly share code, notes, and snippets. Marquette style puts the "summary" blank area on top, while Cornell is on the bottom. Plug in a flash drive or CD/DVD in your PC and wait for the tool to detect it automatically. Any vet rep or VSO who can read, would be able to understand what a valid CUE is by reading this case, and be able to determine if you should file or re open in that regard. Easily generate cue sheets for CD images with compressed audio tracks. CueMaster v. DCue will be fixed soon! HedKandiLover It's a pity Discogs has changed its API. Included in the Autism Tool Kit are downloadable PDFs and links to autism resources web sites that we have found particularly helpful. Last active Nov 10, 2016. Here's some output:. Rekordcloud can automatically provide your tracks with drop and breakdown cue points. server-mac. CUE” (Cue Sheet File) - are CD or DVD disk images split into two different files. Keywords: Bass Booster Software - Mp3 Equalizer - Treble Booster Software. gif extension to in the output file and leave the rest to FFmpeg. CATALOG - A 13-digit UPC/EAN code. From Valve Developer Community. Save the file to the same folder as the BIN file. First if the first line of the. One particular feature that makes Robocopy special (and often overlooked) is its multi-threaded feature that allows you to simultaneously copy multiple. Files and File Extensions. You can also specify the symbol that separates the input words and also change the symbol that separates the shuffled words in the output. Alternatively, is is possible to create a. 00) File Size:594 Kb. Or directly drag and drop the files into the music player to split FLAC CUE files. This bypasses needing to first click Custom. Cue Point Generator. This utilitiy will allow you to generate CUE sheets for Sega CD, Sega Saturn, and Neo-Geo CD games. The bin file is a binary file, which stores the raw sector-by-sector copies of the tracks in the disc. - Best cue generator STEP 2: Copy the file over to your iDevice using any of the file managers mentioned above or skip this step if you're downloading from your iDevice. 593 [名無し]さん(bin+cue). Peoria, Illinois $11,000 Total Added. Rekordcloud can automatically provide your tracks with drop and breakdown cue points. 21 ID:QA3GeFeq 海外サイトやエロサイトは経験値がものを言うからねぇ そのうち画面構成やURLの時点で怪しいと判断つくようになるし頑張れ. You can use this tool edit every detail of cue file. Anyone care to test this out? If it works, that would make Sega CUE Maker obsolete. Installation is not necessary, just download, unzip and run! Choose your language to begin. My last post on CUE here yesterday will also help any POA rep ,VSO , or claimant understand what a CUE is and how a re -open can gain a better EED, as explained in that. It compares their disk image handling features. Changes from 4. I’m ready to break. Drop/breakdown is offset by exactly 1 or 2 bars. Dependency lines: cue2toc>0:audio/cue2toc. Feel free to try it ;). cue is a simple text file. To convert audio streams to MP3 the application uses. Redump - disc images information. Snooker Cue Tip Clamp Standard Wooden Cue Tip Clamp Repair Tool with Coil File for Snooker Cues 10MM & 11MM, we would be happy to set up a custom listing for you. Install using Homebrew. For instance, this is what a converted CUE for "Birdie. CUE is an open source language, with a rich set of APIs and tooling, for defining, generating, and validating all kinds of data: configuration, APIs, database schemas, code, … you name it. The e:cue Lighting Application Suite is a collection of software applications used to program the most creative lighting designs. The file is clean, see report. bin file is located (use the browsing tool on the left): Next, choose a data type. CDTEXTFILE – A path to a file containing CD-Text info.